#TITLE:Destiny;
#SUBTITLE:;
#ARTIST:Smiley;
#TITLETRANSLIT:;
#SUBTITLETRANSLIT:;
#ARTISTTRANSLIT:;
#CREDIT:;
#BANNER:Destiny-bn.png;
#BACKGROUND:Destiny-bg.png;
#LYRICSPATH:;
#CDTITLE:HI19.png;
#MUSIC:Destiny.mp3;
#OFFSET:-0.040;
#SAMPLESTART:34.286;
#SAMPLELENGTH:12.000;
#SELECTABLE:YES;
#BPMS:0.000=175.000;
#STOPS:;
#BGCHANGES:;
// cache tags:
#FIRSTBEAT:0.000;
#LASTBEAT:547.750;
#SONGFILENAME:Songs/Music V.I.P ^_^/Destiny/Destiny.sm;
#HASMUSIC:1;
#HASBANNER:1;
#MUSICLENGTH:189.314;
// end cache tags

//---------------dance-single - ----------------
#NOTES:
     dance-single:
     :
     Hard:
     14:
     1.000,1.000,1.000,0.428,1.000,1829.000,699.000,81.000,0.000,0.000:
0110
1001
0000
1010
0101
0000
0110
1001
0000
1100
0011
0000
1010
0000
1010
0000
,
0110
1001
0000
0011
1100
0000
0101
1010
0000
1001
0110
0000
0011
0000
0011
0000
,
1100
0011
0000
0110
1001
0000
0011
1100
0000
1001
0110
0000
0011
0000
0011
0000
,
1010
0101
0000
1001
0110
0000
0101
1010
0000
0011
1100
0000
1001
0000
1001
0000
,
1100
0011
0000
0110
1001
0000
0011
1100
0000
0101
1010
0000
0101
0000
0101
0000
,
1100
0011
0000
0110
1001
0000
0011
1100
0000
0101
1010
0000
0110
0000
0110
0000
,
0011
1100
0000
1010
0101
0000
0110
1001
0000
0011
1100
0000
1001
0000
1001
0000
,
1001
0110
0000
0101
1010
0000
1100
0011
0000
1010
0101
0000
1010
0000
1010
0000
,
2010
0001
0000
0001
0010
3000
0201
1000
0000
1000
0001
0300
1002
0000
1000
0003
,
0120
1000
0000
1000
0100
0030
0201
1000
0000
1000
0001
0300
2010
0000
0010
3000
,
0120
0001
0000
0001
0100
0030
2001
0010
0000
0010
0001
3000
0210
0000
1000
0300
,
1020
0001
0000
0001
1000
0030
0102
0010
0000
0010
0100
0003
0210
0000
0010
0300
,
1020
0100
0000
0100
1000
0030
0102
0010
0000
0010
0100
0003
2010
0000
0010
3000
,
0021
0100
0000
0100
0001
0030
0102
1000
0000
1000
0100
0003
0210
0000
0010
0300
,
0012
1000
0000
1003
0210
0000
0001
1300
0020
1000
0001
0030
0201
0000
0001
0300
,
1020
0001
0000
0031
1200
0000
0010
0301
2000
0001
0010
3000
0102
0000
0100
0003
,
1020
0000
0001
0000
0100
0030
0201
0000
1000
0000
0010
0300
1002
0000
0100
0003
,
1020
0000
0001
0000
0100
0030
0201
0000
0010
0000
0001
0300
2010
0000
0001
3000
,
0120
0000
0001
0000
1000
0030
0201
0000
0010
0000
0001
0300
2010
0000
0100
3000
,
0021
0000
1000
0000
0001
0030
1002
0000
0010
0000
1000
0003
0210
0000
1000
0300
,
0021
0000
0100
0000
0001
0030
1200
0000
0010
0000
1000
0300
0021
0000
1000
0030
,
0102
0000
0010
0000
0100
0003
2010
0000
0001
0000
0100
3000
0021
0000
1000
0030
,
0201
0000
0010
0300
0021
0000
1000
0030
2100
0000
0010
3000
0102
0000
1000
0003
,
0210
0000
0001
0300
1020
0000
0100
0030
2001
0000
0010
3000
0102
0000
0010
0003
,
0110
0001
1000
0001
0110
1000
0100
0010
1001
0010
0100
1000
0110
0001
0010
0100
,
0011
0100
0001
0100
1010
0100
0010
0001
0110
0001
1000
0100
1001
0010
0101
0010
,
1100
0001
1000
0010
0101
1000
0001
0010
1100
0001
1000
0100
1001
0010
0100
0010
,
0101
1000
0001
1000
0110
0001
0010
0100
0011
1000
0100
0010
1100
0001
1010
0001
,
1100
0001
0100
1000
0011
1000
0100
1000
0110
0001
0010
0100
1001
0010
0100
0001
,
1010
0100
0001
0010
1100
0010
0100
0010
1001
0010
1000
0001
0110
1000
0101
0010
,
1001
0010
0100
1000
0110
0001
1000
0100
0011
1000
0001
0100
1010
0100
0001
1000
,
0110
0001
0100
0010
1100
0001
0010
1000
0101
0010
0001
0110
1001
0000
0110
0000
,
1001
0100
0010
0100
0011
1000
0100
0010
1100
0010
0100
0001
1010
0100
0010
0100
,
1001
0010
0100
0010
0101
0010
1000
0001
0110
0001
1000
0001
1010
0100
1010
0100
,
1001
0100
0010
0100
0011
1000
0100
0010
0101
0010
0001
1000
0110
0001
0100
0010
,
1100
0010
0100
0001
1010
0100
0010
0100
0011
1000
0100
0010
0101
0010
1001
0010
,
0101
1000
0100
0010
0101
0010
0100
1000
0101
0010
1000
0001
0110
1000
0100
0010
,
0101
0010
0001
0010
1100
0001
0100
1000
0110
0001
1000
0010
1100
0001
1010
0001
,
0110
1000
0100
0001
0110
1000
0001
0010
0101
0010
1000
0100
1010
0100
0010
1000
,
0101
1000
0010
0100
0011
1000
0100
1000
0101
0010
0100
1010
0101
0000
1010
0000
,
0101
0010
0100
0010
1001
0100
1001
0100
0010
0100
1001
0010
0101
0010
1100
0010
,
0101
0010
0001
1000
0100
0010
1100
0010
1000
0001
0110
1000
0101
0010
0001
0010
,
1001
0100
1010
0100
0011
0100
0010
0100
1001
0010
0001
0010
1100
0010
1100
0001
,
0100
0010
0100
1000
0001
0010
0101
0010
0100
1000
0110
0001
1010
0100
1001
0010
,
1100
0001
0110
1000
0101
0010
0100
0010
1001
0100
0010
0100
0010
0001
0110
1000
,
0100
0010
0001
0100
0010
1000
0101
0010
0100
1000
0101
0010
1100
0010
0001
0100
,
1001
0010
0100
0010
1000
0010
0101
1000
0001
0010
0001
0100
0011
1000
0100
0010
,
0001
0100
0010
1000
0100
0010
0100
1000
0001
0010
0100
0010
1001
0100
0010
0100
,
1001
0010
0100
0010
0101
0010
1100
0001
0100
0010
1001
0010
0101
1000
0110
0001
,
1100
0010
0100
0010
0001
0010
1100
0001
1000
0100
0011
1000
0101
0010
0100
0010
,
0101
1000
0110
1000
0011
0100
0010
0100
1001
0010
0001
0010
0101
0010
1100
0001
,
0010
0100
1000
0010
0100
0001
0110
1000
0100
0001
0110
1000
0110
0001
1010
0100
,
1001
0010
1100
0010
0101
0010
0100
0010
1001
0100
0001
0010
0100
1000
0110
0001
,
0100
0010
1000
0100
0010
0001
1010
0100
0010
1000
0101
0010
1100
0010
0101
0010
,
1001
0100
0010
0100
1000
0010
0101
0010
0001
0010
0100
0010
1100
0010
1001
0100
,
0010
1000
0100
0010
0001
0010
1100
0001
1010
0101
1010
0101
1010
0101
1010
0101
,
1010
0001
1000
0010
0101
1000
0110
0001
1000
0001
0110
0001
1100
0001
0010
0100
,
1001
0100
0011
1000
0010
1000
0011
0100
1001
0100
0011
0100
1010
0100
0011
1000
,
0101
0010
0100
0001
1100
0010
1001
0010
0100
1000
0101
0010
1100
0010
0001
0010
,
1100
0010
1001
0100
0010
0100
0011
1000
0110
0001
0110
1000
0101
0010
1001
0100
,
0011
0100
1000
0001
1010
0001
0110
1000
0001
1000
0110
1000
0011
0100
0010
0100
,
1001
0010
0101
1000
0100
0010
0101
1000
0011
0100
1001
0100
1010
0001
0110
1000
,
0101
0010
1000
0010
0101
0010
1100
0010
0100
0001
1010
0100
0011
1000
0100
0010
,
0101
0010
1001
0100
0010
0100
0011
1000
0101
0010
1100
0011
1100
0001
1010
0100
,
1001
0010
0100
0010
1100
0001
1010
0100
0010
0100
0011
1000
0101
0010
0100
0010
,
1001
0100
1010
0001
0010
1000
0011
0100
1001
0010
0101
1000
0110
0001
1010
0100
,
0011
0100
0001
0100
1010
0100
0011
1000
0100
0001
0110
0001
1100
0010
1000
0010
,
1100
0001
1010
0100
0010
0100
0011
1000
0110
1000
0101
0010
1100
0001
1100
0010
,
1001
0010
0100
1000
0011
0100
1001
0010
0001
0010
1100
0001
1010
0100
0010
0001
,
1010
0001
0110
1000
0100
0010
1001
0100
1010
0001
1100
0001
1010
0100
0011
1000
,
0101
0010
0100
1000
0011
0100
1010
0001
0010
0001
1100
0010
0101
1000
0100
0010
,
1100
0010
0101
0010
1000
0010
0101
1000
0110
1001
0110
1001
0110
1001
0110
0000
,
1001
0110
1001
0010
1100
0010
0101
1000
0001
0010
1100
0001
0110
1000
0001
0010
,
1100
0011
1100
0001
1010
0001
0110
1000
0100
0010
1001
0010
0101
0010
1000
0100
,
1010
0101
1010
0001
1010
0001
1100
0010
0001
0100
1001
0010
1100
0001
0010
0100
,
0011
1100
0011
0100
1001
0100
1010
0001
0010
1000
0110
1000
0101
0010
1000
0010
,
0101
1010
0101
1010
0101
0010
1000
0001
0110
1000
0001
0010
1100
0001
0010
0100
,
1001
0110
1001
0110
1001
0010
1000
0001
0110
1000
0001
0100
1001
0100
0010
0100
,
0020
0001
0001
0001
,
0001
0000
0000
0000
0001
0000
0000
0000
0001
0000
0001
0000
0001
0000
0001
0030
,
0101
1010
0101
1000
0011
0100
1010
0100
0001
0100
0011
1000
0110
0001
0010
0100
,
0011
1100
0011
0100
1010
0001
0110
1000
0100
1000
0011
0100
1010
0001
0100
1000
,
0110
1001
0110
1000
0110
0001
1010
0100
0010
0100
1001
0100
0011
1000
0100
0010
,
1100
0011
1100
0010
0101
0010
1001
0100
0010
0001
0110
0001
1010
0100
0001
0100
,
1001
0110
1001
0110
1001
0010
0100
1000
0110
0001
0010
0100
0011
1000
0010
0100
,
0011
1100
0011
1100
0011
1000
0100
0001
0110
0001
0010
1000
0101
0010
0100
1000
,
0110
0001
0100
0010
1000
0100
0010
0100
1000
0010
0100
0010
1000
0100
0010
0001
,
0100
0010
1000
0001
1000
0001
0010
0100
0010
0100
1000
0001
0010
0001
1000
0100
,
0021
0000
0000
0000
0001
0030
2100
0000
0000
0000
0001
3000
0120
0000
0000
0030
,
0102
0000
0010
0000
0000
0003
0200
0000
0001
0000
1000
0300
0012
0000
1000
0003
,
2010
0000
0000
0000
0001
3000
0102
0000
0000
0000
0010
0003
1200
0000
0000
0300
,
0012
0000
0100
0000
0000
0003
1020
0000
0100
0000
0001
0030
2100
0000
0001
3000
,
0120
0000
0000
0000
0001
0030
1200
0000
0000
0000
0010
0300
2001
0000
0000
3000
,
0120
0000
0001
0000
0000
0030
1002
0000
0100
0000
0010
0003
1200
0000
0010
0300
,
0012
0000
1000
0103
1020
0000
0001
1030
0201
0000
0010
0301
2010
0000
0100
3001
,
0120
0000
1000
0031
1200
0000
0010
1300
0012
0000
0100
0013
2100
0010
0001
3010
,
0101
0010
1100
0001
0110
0001
1100
0001
1010
0100
1001
0010
0101
0010
1100
0001
,
0110
0001
1100
0010
0101
0010
1100
0010
0101
0010
1001
0100
0011
0100
1010
0100
,
0011
1000
0101
0010
0101
1000
0101
0010
1001
0010
1100
0001
0110
0001
1100
0010
,
1001
0110
1001
0000
0011
1100
0011
0000
1010
0101
1010
0000
1100
0011
1100
0000
,
0011
0100
1010
0001
0110
1000
0101
0010
1100
0010
1001
0100
1010
0100
0011
0100
,
1010
0001
1010
0001
0110
1000
0101
0010
1001
0100
1010
0001
0110
1000
0011
0100
,
1010
0001
1100
0001
1010
0100
0011
0100
1001
0010
0101
0010
1100
0010
1001
0100
,
1010
0001
0110
0000
0110
1001
0110
0000
1100
0000
0101
1010
0101
1010
0101
0000
,
0110
0001
0010
0100
1010
0100
0001
0010
0101
0010
0100
1000
0101
0010
0100
1000
,
0011
0100
0010
0100
1001
0010
0100
1000
0011
0100
1000
0100
0011
0100
1001
0010
,
0101
0010
0100
1000
0110
0001
0010
0100
1010
0100
0001
0010
0101
0010
0100
1000
,
0101
0010
0001
0010
0101
0010
0100
1000
0110
0001
0010
0100
1001
0010
1100
0010
,
0101
1000
0100
0010
1001
0010
0100
1000
0011
1000
0100
0001
1010
0100
0001
0010
,
0101
0010
0100
0010
0101
1000
0010
0001
1100
0010
0100
0010
0101
0010
1001
0100
,
1010
0001
0100
0010
0101
0010
0100
1000
0011
1000
0100
0010
0101
0010
1000
0100
,
0011
0100
1000
0100
1001
0010
0100
0010
0101
0010
0100
1001
0110
1000
0011
0000
,
0110
0001
1000
0001
1010
0100
0001
0100
0011
1000
0100
0010
1001
0010
0100
1000
,
0101
0010
0001
1000
0101
0010
0100
0001
1100
0010
0001
1000
0101
1000
0011
0100
,
1001
0100
0010
0001
1100
0010
0100
0010
0101
0010
1000
0001
1010
0100
0010
0001
,
0110
0001
1000
0010
0101
0010
0100
1000
0110
0001
0100
0010
0101
0010
1001
0100
,
0011
0100
1000
0100
0011
0100
0001
1000
0101
0010
0100
0010
1001
0100
0010
0001
,
1010
0100
0010
0100
0011
1000
0001
0100
1010
0100
0001
0010
0101
0010
1001
0100
,
1010
0100
0010
0001
1010
0100
0001
1000
0110
1000
0100
0010
1001
0100
0001
1000
,
0110
0001
0010
0100
1001
0100
0010
0001
0110
0001
0100
1001
0110
0001
1100
0000
,
0110
0001
1010
0001
0110
1000
0110
0001
1010
0100
1001
0010
0101
0010
1100
0001
,
0110
1000
0011
0100
1001
0010
0101
1000
0110
1000
0110
0001
1010
0100
1001
0010
,
1100
0001
1010
0100
0011
1000
0110
0001
1010
0100
1001
0010
0101
0010
1100
0001
,
0110
1000
0101
0010
1001
0100
0011
1000
0110
1000
0101
0010
1001
0100
0011
1000
,
0110
0001
1010
0100
0011
1000
0101
1000
0011
1000
0101
0010
1100
0010
0101
1000
,
0110
0001
1010
0100
0011
1000
0101
0010
1100
0010
0101
0010
1001
0100
0011
1000
,
0110
0001
1010
0001
1100
0001
0110
0001
1010
0100
1001
0010
1001
0100
1010
0100
,
0011
1000
0101
0010
1100
0001
0110
1000
0110
0001
1010
0001
0110
1000
0110
0001
,
1100
0000
0100
0001
0000
0010
0100
0010
,
1000
0000
0000
0100
0000
0001
0010
0000
,
1000
0010
0100
0000
0001
0000
1000
0100
,
0000
0000
0000
0001
0000
0100
0010
0100
,
0001
1000
1000
0000
0100
0000
0000
0001
,
0000
0000
0000
1000
0000
0010
0001
0010
,
0100
0000
0000
0010
0000
0000
0010
0010
,
0000
0000
0000
0000
0000
0000
0010
0000
1000
0001
1000
0001
1000
0001
1000
0001
,
0220
0000
0000
0000
0000
0000
0000
0000
0000
0000
0000
0000
0000
0000
0000
0330
;
